Roots Rock
Más detalles
Nenorakam (2017) Telugu - 720p - HDTVRip - AVC - AAC-TMV

Nenorakam (2017) Telugu - 720p - HDTVRip - AVC - AAC-TMV






General
Format                      : MPEG-4
Format profile              : Base Media
Codec ID                    : isom (isom/iso2/avc1/mp41)
File size                   : 1.54 GiB
Duration                    : 1 h 57 min
Overall bit rate            : 1 872 kb/s
Writing application         : Lavf57.25.100

Video
ID                          : 1
Format                      : AVC
Format/Info                 : Advanced Video Codec
Format profile              : [email protected]
Format settings, CABAC      : Yes
Format settings, RefFrames  : 3 frames
Codec ID                    : avc1
Codec ID/Info               : Advanced Video Coding
Duration                    : 1 h 57 min
Bit rate                    : 1 736 kb/s
Width                       : 1 280 pixels
Height                      : 720 pixels
Display aspect ratio        : 16:9
Frame rate mode             : Variable
Frame rate                  : 25.000 FPS
Minimum frame rate          : 5.000 FPS
Maximum frame rate          : 25.000 FPS
Color space                 : YUV
Chroma subsampling          : 4:2:0
Bit depth                   : 8 bits
Scan type                   : Progressive
Bits/(Pixel*Frame)          : 0.075
Stream size                 : 1.43 GiB (93%)

Audio
ID                          : 2
Format                      : AAC
Format/Info                 : Advanced Audio Codec
Format profile              : LC
Codec ID                    : 40
Duration                    : 1 h 57 min
Bit rate mode               : Constant
Bit rate                    : 129 kb/s
Channel(s)                  : 2 channels
Channel positions           : Front: L R
Sampling rate               : 44.1 kHz
Frame rate                  : 43.066 FPS (1024 SPF)
Compression mode            : Lossy
Stream size                 : 108 MiB (7%)
Language                    : Telugu
Default                     : Yes
Alternate group             : 1






SINGLE DIRECT FAST LINKS

http://www.heroupload.us/b36bcc845e4958b4/Nenorakam.2017.Telugu.True.HDTV.720p.AVC.AAC-TMV.mp4



http://filefloater.com/1j6F/Nenorakam.2017.Telugu.True.HDTV.720p.AVC.AAC-TMV.mp4



шаблоны для dle 11.2