Mitch Stinson
2016 5.9 HD
Spyder (2017) 1080p - WEB-HD - x264 [Dual Audio][Hindi+Telugu] - Ranvijay

Spyder (2017) 1080p - WEB-HD - x264 [Dual Audio][Hindi+Telugu] - Ranvijay






Format                                   : Matroska
Format version                           : Version 4 / Version 2
File size                                : 3.47 GiB
Duration                                 : 2 h 16 min
Overall bit rate                         : 3 636 kb/s
Movie name                               : Spyder (2017) UNCUT 1080p WEB-HD x264 Dual Audio [Hindi DD 2.0 - Telugu DD 2.0] ~ Ranvijay

Video
ID                                       : 1
Format                                   : AVC
Duration                                 : 2 h 16 min
Bit rate                                 : 3 221 kb/s
Width                                    : 1 920 pixels
Height                                   : 1 080 pixels
Display aspect ratio                     : 16:9
Frame rate mode                          : Constant
Frame rate                               : 29.970 (30000/1001) FPS
Color space                              : YUV
Chroma subsampling                       : 4:2:0
Bit depth                                : 8 bits
Scan type                                : Progressive
Bits/(Pixel*Frame)                       : 0.052
Stream size                              : 3.07 GiB (89%)
Title                                    : ~Ranvijay~
Language                                 : Telugu
Default                                  : Yes
Forced                                   : No

Audio #1
ID                                       : 2
Format                                   : AAC
Format/Info                              : Advanced Audio Codec
Format profile                           : LC
Codec ID                                 : A_AAC-2
Duration                                 : 2 h 16 min
Bit rate                                 : 192 kb/s
Channel(s)                               : 2 channels
Channel positions                        : Front: L R
Sampling rate                            : 48.0 kHz
Frame rate                               : 46.875 FPS (1024 SPF)
Compression mode                         : Lossy
Delay relative to video                  : -67 ms
Stream size                              : 187 MiB (5%)
Title                                    : ~Ranvijay~
Language                                 : Hindi
Default                                  : Yes
Forced                                   : No

Audio #2
ID                                       : 3
Format                                   : AAC
Format/Info                              : Advanced Audio Codec
Format profile                           : LC
Codec ID                                 : A_AAC-2
Duration                                 : 2 h 16 min
Bit rate                                 : 221 kb/s
Channel(s)                               : 2 channels
Channel positions                        : Front: L R
Sampling rate                            : 48.0 kHz
Frame rate                               : 46.875 FPS (1024 SPF)
Compression mode                         : Lossy
Delay relative to video                  : -67 ms
Stream size                              : 216 MiB (6%)
Title                                    : ~Ranvijay~
Language                                 : Telugu
Default                                  : No
Forced                                   : No 


















SINGLE DIRECT FAST LINKS

http://www.heroupload.us/d989a6df2ec3d6e0/Spyder.2017.UNCUT.1080p.WEB-HD.x264.Dual.Audio.Hindi.DD2.0-Telugu.DD.2.0-Ranvijay.mkv


http://filefloater.com/T45/Spyder.2017.UNCUT.1080p.WEB-HD.x264.Dual.Audio.Hindi.DD2.0-Telugu.DD.2.0-Ranvijay.mkv


1GB LINKS


http://www.heroupload.us/d384281646ac436f/Spyder.2017.UNCUT.1080p.WEB-HD.x264.Dual.Audio.Hindi.DD2.0-Telugu.DD.2.0-Ranvijay.part1.rar
http://www.heroupload.us/2ae2f8ab9b8f78ae/Spyder.2017.UNCUT.1080p.WEB-HD.x264.Dual.Audio.Hindi.DD2.0-Telugu.DD.2.0-Ranvijay.part2.rar
http://www.heroupload.us/85595be9602e68c8/Spyder.2017.UNCUT.1080p.WEB-HD.x264.Dual.Audio.Hindi.DD2.0-Telugu.DD.2.0-Ranvijay.part3.rar
http://www.heroupload.us/7cde63cb9e8d6bcd/Spyder.2017.UNCUT.1080p.WEB-HD.x264.Dual.Audio.Hindi.DD2.0-Telugu.DD.2.0-Ranvijay.part4.rar



http://filefloater.com/T46/Spyder.2017.UNCUT.1080p.WEB-HD.x264.Dual.Audio.Hindi.DD2.0-Telugu.DD.2.0-Ranvijay.part1.rar
http://filefloater.com/T47/Spyder.2017.UNCUT.1080p.WEB-HD.x264.Dual.Audio.Hindi.DD2.0-Telugu.DD.2.0-Ranvijay.part2.rar
http://filefloater.com/T48/Spyder.2017.UNCUT.1080p.WEB-HD.x264.Dual.Audio.Hindi.DD2.0-Telugu.DD.2.0-Ranvijay.part3.rar
http://filefloater.com/T49/Spyder.2017.UNCUT.1080p.WEB-HD.x264.Dual.Audio.Hindi.DD2.0-Telugu.DD.2.0-Ranvijay.part4.rar

шаблоны для dle 11.2